X
تبلیغات
رایتل

آلبوم قشنگ و قدیمی مدرن تالکینگ Modern Talking - The First Album 1985 با لینک مستقیم

توماس و دیتر یکدیگر را در سال 1982 در برلین ملاقات کردند.این دو در یکی از استودیو های ضبط موسیقی مشغول به کار بودند. توماس وظیفه ضبط آهنگ ها را بر عهده داشت و دیتر نیز به تولید آهنگ مشغول بود.از جمله ترانه آلمانی زبان (was macht das shone). بعد از ضبط این آهنگ چندین ترانه آلمانی زبان دیگر از جمله (woron traomst do denn) نیز ساخته شد.

پس از چندی گروه تصمیم گرفت که دست به ساخت یک ترانه به زبان انگلیسی بزندو این نقطه شروع بزرگی در کار Modern Talking بود!

ترا you're my heart youre my soul (تو قلب منی تو روح منی) ساخته و اجرا شد. این ترانه بلافاصله در جدول ترانه های منحصر به فرد آلمان مقام اول را احراز کرد و برای 6 هفته در جدول باقی ماند.بعلاوه توانست در بین 35 کشور به مقام نخست دست پیدا کند.

این آلبومی که براتون در این پست با لینک مستقیم می گذارم مربوط میشه به اولین آلبوم مشترک این گروه که در سال 1985 وارد بازار شد و با همین آلبوم این گروه معروف طرفداران خودشان را جذب کردند و پیشنهاد می کنم اگر آلبوم های قدیمی این گروه را ندارید ، حتما این آلبوم قشنگ را دانلود کنید که با کیفیت اورجینال می باشد.

هدف ای ار تولز فقط برآورده کردن نیاز های کاربران اینترنتی بصورت مجانی می باشد.

مشخصات آلبوم

نام خواننده: Modern Talking
نام آلبوم: The First album
سال تولید: 1985
نوع سبک: POP
مدت زمان: 33 دقیقه 56 ثانیه
حجم آلبوم: 264 مگابایت - دارای سه فایل بهم چسبیده با لینک مستقیم
کیفیت آلبوم: 256
فرمت پخش کننده: MP3
معرفی شده توسط: IR Tools Download Center
نوع لینک: موستقیم از سرور سایت
رمز عبور:www.irtools4u.com


لینک دانلود بصورت مستقیم دارای سه پارت

http://irtools4u.com/music/foreign_music/385-modern-talking-the-first-album.html


Tracks list
TRACK 01 AUDIO
TITLE "You're My Heart, You're My Soul"
PERFORMER "Modern Talking"
INDEX 00 00:00:00
INDEX 01 00:00:33
TRACK 02 AUDIO
TITLE "You Can Win If You Want"
PERFORMER "Modern Talking"
INDEX 00 05:32:63
INDEX 01 05:36:45
TRACK 03 AUDIO
TITLE "There's Too Much Blue In Missing You"
PERFORMER "Modern Talking"
INDEX 00 09:24:50
INDEX 01 09:29:45
TRACK 04 AUDIO
TITLE "Diamonds Never Made A Lady"
PERFORMER "Modern Talking"
INDEX 00 14:10:20
INDEX 01 14:14:08
TRACK 05 AUDIO
TITLE "The Night Is Mine"
PERFORMER "Modern Talking"
INDEX 00 18:17:59
INDEX 01 18:22:58
TRACK 06 AUDIO
TITLE "Do You Wanna"
PERFORMER "Modern Talking"
INDEX 00 23:51:70
INDEX 01 23:55:45
TRACK 07 AUDIO
TITLE "Lucky Guy"
PERFORMER "Modern Talking"
INDEX 00 28:17:20
INDEX 01 28:21:40
TRACK 08 AUDIO
TITLE "One In A Million"
PERFORMER "Modern Talking"
INDEX 00 31:52:20
INDEX 01 31:55:45
TRACK 09 AUDIO
TITLE "Bells Of Paris"
PERFORMER "Modern Talking"
INDEX 00 35:36:58
INDEX 01 35:41:20